#TITLE:My Heart Will Go On;
#SUBTITLE:(2001 Dance Mix);
#ARTIST:Dance Team;
#TITLETRANSLIT:;
#SUBTITLETRANSLIT:;
#ARTISTTRANSLIT:;
#CREDIT:;
#BANNER:heart-banner.png;
#BACKGROUND:heart-bg.png;
#LYRICSPATH:;
#CDTITLE:;
#MUSIC:My Heart Will Go On.mp3;
#MUSICLENGTH:85.028;
#OFFSET:-0.520;
#SAMPLESTART:15.925;
#SAMPLELENGTH:12.000;
#SELECTABLE:YES;
#BPMS:0.000=123.980;
#STOPS:;
#BGCHANGES:;
#FIRSTBEAT:12.000;

#LASTBEAT:174.000;

#SONGFILENAME:Songs/ERICth The 3rd/My Heart Will Go On/My Heart.sm;

#HASMUSIC:1;

#HASBANNER:1;


//---------------dance-single - MANIAC----------------
#NOTES:
     dance-single:
     MANIAC:
     hard:
     6:
     0.314,0.384,0.270,0.353,0.000,134.000,23.000,30.000,0.000,0.000:  // measure 1
0000
0000
0000
0000
,  // measure 2
0000
0000
0000
0000
,  // measure 3
0000
0000
0000
0000
,  // measure 4
0000
0000
0000
0000
0000
0000
1000
0001
,  // measure 5
2000
0000
0000
0000
0000
0000
3100
0010
,  // measure 6
0200
0000
0000
0000
0000
0000
1300
0001
,  // measure 7
0020
0100
0100
0100
,  // measure 8
0130
0000
0100
0001
1000
0100
0010
0000
,  // measure 9
1010
0000
0000
0100
0001
0000
0010
0000
,  // measure 10
0100
0000
1001
0000
0000
0000
0000
0010
,  // measure 11
0001
0011
0000
1000
,  // measure 12
0200
0000
0310
0000
,  // measure 13
2000
0000
0000
3100
0010
0000
0001
0000
,  // measure 14
1000
0000
0011
0000
0000
0000
0000
1000
,  // measure 15
0220
0000
0000
0000
,  // measure 16
0000
0330
0000
0000
0000
0000
0000
0000
,  // measure 17
0010
0000
0000
0100
0010
0000
0010
0000
,  // measure 18
0110
0000
0110
0000
0000
0000
0000
1000
,  // measure 19
0101
1020
0000
1030
,  // measure 20
0100
0000
0200
1300
,  // measure 21
1000
0000
0100
0000
0010
0001
0000
0000
,  // measure 22
2000
0000
0200
0000
0000
3300
0000
1100
,  // measure 23
0200
0010
0010
0010
,  // measure 24
0310
1000
0001
0010
,  // measure 25
0020
0031
1001
0011
,  // measure 26
2000
3010
1001
0110
,  // measure 27
2000
0000
0100
0000
3001
0000
0001
1000
,  // measure 28
0000
0000
0100
0010
0002
0000
0000
1003
,  // measure 29
0200
0000
0310
0110
,  // measure 30
0020
0000
1000
0030
1010
0000
1010
0010
,  // measure 31
0200
0010
1000
0301
,  // measure 32
0022
0000
0000
0033
,  // measure 33
0001
0100
0000
0100
0001
0000
1000
0100
,  // measure 34
2000
0001
3001
1001
,  // measure 35
0002
0000
0100
0000
0013
0000
1000
0001
,  // measure 36
1000
0100
0110
0001
,  // measure 37
2200
0000
0000
3300
1100
0000
0100
0000
,  // measure 38
0010
0001
0010
0000
0000
0000
0000
1000
,  // measure 39
0100
0100
0100
0100
,  // measure 40
2000
0000
0000
0000
0020
0000
0000
3030
,  // measure 41
0202
0000
0000
0000
,  // measure 42
0303
1000
0000
0001
,  // measure 43
0000
0100
0000
0010
,  // measure 44
2000
0000
3000
0000
;

//---------------dance-single - ANOTHER----------------
#NOTES:
     dance-single:
     ANOTHER:
     medium:
     3:
     0.161,0.203,0.047,0.106,0.000,83.000,4.000,9.000,0.000,0.000:  // measure 1
0000
0000
0000
0000
,  // measure 2
0000
0000
0000
0000
,  // measure 3
0000
0000
0000
0000
,  // measure 4
0001
0000
0000
0000
,  // measure 5
1000
0000
0000
0000
,  // measure 6
0100
0000
0000
0000
,  // measure 7
0010
0000
0000
0100
,  // measure 8
0100
0000
0000
0001
,  // measure 9
1000
0000
0000
0000
,  // measure 10
0010
0000
0000
0100
,  // measure 11
0010
0000
0000
1000
,  // measure 12
0020
0000
0130
0000
,  // measure 13
0001
0000
1000
0000
,  // measure 14
0100
0010
0000
0100
,  // measure 15
0202
0000
0000
0000
,  // measure 16
0000
0000
0303
0000
,  // measure 17
1001
0100
0000
0100
,  // measure 18
0000
0010
0001
1000
,  // measure 19
0100
0010
0000
0100
,  // measure 20
0020
0000
0130
0000
,  // measure 21
1000
0000
0100
0000
,  // measure 22
0001
0000
0100
0000
,  // measure 23
1000
0010
0000
0010
,  // measure 24
1000
1000
1000
0000
,  // measure 25
0002
0000
0000
0000
,  // measure 26
2003
0000
0000
0000
,  // measure 27
3010
0100
0010
0001
,  // measure 28
0002
0000
0000
0000
,  // measure 29
0103
0000
0010
0000
,  // measure 30
0100
0000
1000
0100
,  // measure 31
1000
0000
0010
0001
,  // measure 32
0010
0000
0000
1001
,  // measure 33
0100
0000
0000
1001
,  // measure 34
0010
0000
0000
0001
,  // measure 35
0020
0000
0000
0000
,  // measure 36
0130
0000
1000
0010
,  // measure 37
0000
0100
0001
0000
,  // measure 38
0100
1000
0000
0100
,  // measure 39
0010
0000
0010
0100
,  // measure 40
0000
0001
0000
0001
,  // measure 41
0100
0000
0010
0000
,  // measure 42
0100
0000
0010
0000
,  // measure 43
1000
0000
0001
0000
,  // measure 44
2000
3000
0000
0000
;

//---------------dance-single - BASIC----------------
#NOTES:
     dance-single:
     BASIC:
     easy:
     2:
     0.121,0.254,0.059,0.423,0.000,31.000,5.000,36.000,0.000,1.000:  // measure 1
0000
0000
0000
0000
,  // measure 2
0000
0000
0000
0000
,  // measure 3
0000
0000
0000
0000
,  // measure 4
0000
0000
0000
0000
,  // measure 5
0020
0000
0000
0000
,  // measure 6
2030
0000
0000
0000
,  // measure 7
3200
0000
0000
0000
,  // measure 8
0000
0000
0000
0000
,  // measure 9
0302
0000
0000
0000
,  // measure 10
0000
0000
0000
0000
,  // measure 11
2003
0000
0000
0000
,  // measure 12
0000
0000
0000
0000
,  // measure 13
3020
0000
0000
0000
,  // measure 14
0000
0000
0000
0000
,  // measure 15
0230
0000
0000
0000
,  // measure 16
0002
0000
0000
0303
,  // measure 17
2002
0000
0003
0000
,  // measure 18
0200
0000
0000
0000
,  // measure 19
3320
0000
0000
0000
,  // measure 20
0000
0000
0000
0000
,  // measure 21
2030
0000
0000
0000
,  // measure 22
0000
0000
0000
0000
,  // measure 23
0002
0000
0000
0000
,  // measure 24
0000
0000
3003
0000
,  // measure 25
0002
0000
0000
0000
,  // measure 26
0023
0000
0000
0000
,  // measure 27
0230
0000
0000
0000
,  // measure 28
2300
0000
0000
0000
,  // measure 29
3002
0000
0000
0000
,  // measure 30
0203
0000
0000
0000
,  // measure 31
0320
0000
0000
0000
,  // measure 32
2030
0000
0000
0000
,  // measure 33
3200
0000
0300
0000
,  // measure 34
0020
0000
0030
0000
,  // measure 35
2002
0000
0000
3003
,  // measure 36
0220
0000
0000
0330
,  // measure 37
0002
0000
0000
0000
,  // measure 38
2000
0000
0000
3003
,  // measure 39
2002
0000
0000
3003
,  // measure 40
0020
0000
0200
0330
,  // measure 41
0220
0000
0000
0000
,  // measure 42
0000
0000
0000
0000
,  // measure 43
0000
0000
0000
0000
,  // measure 44
0000
0330
0000
0000
;
